<?xml version="1.0" standalone="no"?>
<!DOCTYPE svg PUBLIC "-//W3C//DTD SVG 1.1//EN" "http://www.w3.org/Graphics/SVG/1.1/DTD/svg11.dtd">
<svg xmlns="http://www.w3.org/2000/svg">
<metadata>Generated by Fontastic.me</metadata>
<defs>
<font id="clotheshub" horiz-adv-x="512">
<font-face font-family="clotheshub" units-per-em="512" ascent="480" descent="-32"/>
<missing-glyph horiz-adv-x="512" />

<glyph glyph-name="bag" unicode="&#97;" d="M461 11l-51 420c-1 5-5 9-11 9l-41 0c-5 41-40 72-82 72-8 0-17-1-25-4-8 3-17 4-26 4-41 0-76-31-81-72l-52 0c-5 0-10-4-10-9l-31-420c0-3 1-6 3-8 2-2 5-3 7-3l390 0c2 0 5 1 7 3 2 3 3 6 3 8z m-124 429l-30 0c-3 21-13 39-28 51 30-1 53-23 58-51z m-86 46c18-8 31-25 35-46l-70 0c3 21 17 38 35 46z m-29 5c-14-12-24-30-27-51l-30 0c4 28 28 50 57 51z m-150-471l30 400 22 0 29-400z m101 0l-29 400 246 0 49-400z"/>
<glyph glyph-name="cart" unicode="&#98;" d="M512 500c-2 8-11 13-19 11l-65-16c-6-1-10-6-11-13l-9-51-394-47c0 0 0-1-1-1 0 0-1 0-1 0-1 0-2-1-2-1-1 0-2-1-3-1-1-1-2-2-3-3 0 0-1-1-1-1 0 0 0 0 0-1-1-1-2-2-2-4 0-1-1-1-1-2 0-2 0-4 0-6l49-192 16-64c0-1 0-1 0-1 0-1 1-2 1-3 1-1 1-2 2-2 0-1 1-2 1-2 1-1 2-2 4-2 0-1 1-1 1-1 2-1 4-1 6-1l336 0c9 0 16 7 16 16 0 9-7 16-16 16l-323 0-8 32 299 0c2 0 4 0 6 1 1 0 1 1 2 1 1 0 2 1 3 2 0 0 1 1 1 1 1 1 2 2 2 3 1 1 1 2 1 3 1 0 1 1 1 2l0 1 0 0 47 293 53 13c9 2 14 11 12 20z m-435-308l-41 162 50 6 24-168z m65 0l-25 172 50 6 8-178z m99 0l-34 0-8 182 50 6z m65 0l-33 0 8 191 50 6z m64 0l-32 0 26 201 34 4z m-226-128c-18 0-32-15-32-32 0-18 14-32 32-32 18 0 32 14 32 32 0 17-14 32-32 32z m208 0c-17 0-32-15-32-32 0-18 15-32 32-32 18 0 32 14 32 32 0 17-14 32-32 32z"/>
<glyph glyph-name="coin" unicode="&#99;" d="M275 269l-38 0c-16 0-29 13-29 29 0 16 13 28 29 28l67 0c7 0 13 6 13 13 0 8-6 14-13 14l-35 0 0 26c0 7-6 13-13 13-7 0-13-6-13-13l0-26-6 0c-30 0-55-25-55-55 0-30 25-55 55-55l38 0c16 0 29-13 29-29 0-16-13-28-29-28l-68 0c-7 0-13-6-13-13 0-8 6-14 13-14l36 0 0-27c0-7 6-13 13-13 7 0 13 6 13 13l0 27 6 0c1 0 1 0 1 0 30 1 54 25 54 55 0 31-25 55-55 55z m162 168c-48 48-113 75-181 75-68 0-133-27-181-75-48-48-75-113-75-181 0-68 27-133 75-181 48-48 113-75 181-75 68 0 133 27 181 75 48 48 75 113 75 181 0 68-27 133-75 181z m-181-411c-127 0-230 103-230 230 0 127 103 230 230 230 127 0 230-103 230-230 0-127-103-230-230-230z"/>
<glyph glyph-name="expand" unicode="&#100;" d="M502 377c6 0 10 4 10 9l0 116c0 2 0 3-1 4-1 2-3 4-5 5-1 1-2 1-4 1l-116 0c-5 0-9-4-9-10 0-5 4-9 9-9l93 0-223-223-223 223 93 0c5 0 9 4 9 9 0 6-4 10-9 10l-116 0c-2 0-3 0-4-1-2-1-4-3-5-5-1-1-1-2-1-4l0-116c0-5 4-9 10-9 5 0 9 4 9 9l0 93 223-223-223-223 0 93c0 5-4 9-9 9-6 0-10-4-10-9l0-116c0-2 0-3 1-4 1-2 3-4 5-5 1-1 2-1 4-1l116 0c5 0 9 4 9 10 0 5-4 9-9 9l-93 0 223 223 223-223-93 0c-5 0-9-4-9-9 0-6 4-10 9-10l116 0c2 0 3 0 4 1 2 1 4 3 5 5 1 1 1 2 1 4l0 116c0 5-4 9-10 9-5 0-9-4-9-9l0-93-223 223 223 223 0-93c0-5 4-9 9-9z"/>
<glyph glyph-name="headphones" unicode="&#101;" d="M466 382c-53 114-148 129-193 130 0 0 0 0 0 0-2 0-4 0-6 0-4 0-8 0-12 0 0 0 0 0-1 0-4 0-8 0-12 0 0 0 0 0 0 0-7 0-13-1-19-1 0 0 0 0-1 0-80-8-141-52-176-129-16-34-23-74-23-126 0-35 18-145 35-172 0-1 1-2 2-3l7-36c0-4 4-7 8-7l35-3 2-10c2-15 15-25 30-25 2 0 4 0 6 1l11 2c8 1 15 6 20 13 5 7 6 15 5 23l-34 177c-1 8-6 15-13 20-6 4-15 6-23 4l-12-2c-8-1-15-6-19-13-5-7-7-15-5-23l6-34-29-14c-8 38-14 82-14 103-1 48 6 86 21 117 14 31 33 57 55 76 43-10 93-15 144-15 47 0 94 4 135 13 20-17 39-41 54-74 15-31 22-69 21-117 0-20-10-66-21-105-1 1-2 1-3 2l-31 14 7 34c3 17-8 33-25 36l-11 2c-8 2-17 0-23-4-7-5-12-12-13-20l-34-177c-2-8 0-16 5-23 4-7 11-12 19-13l12-2c2-1 4-1 6-1 15 0 28 10 30 25l2 10 35 3c4 0 7 3 8 7l7 36c1 1 1 2 2 3 17 27 46 136 46 172 0 51-7 92-23 126z m-369-167c2 3 5 5 9 6l12 2c0 0 1 0 2 0 3 0 5 0 7-2 3-2 5-5 6-8l34-177c0-4 0-7-2-10-2-3-5-5-9-6l-12-2c-7-1-14 3-15 10l-3 17-16 85-15 75c0 4 0 7 2 10z m-9-65l11-57 7-40-23 2-16 86z m288 312c-36-6-75-9-115-9-43 0-85 3-123 10 29 20 64 31 104 31 0 0 0 0 0 0 4 0 9 0 13 0 4 0 8 0 12 0l0 0c0 0 0 0 0 0l1 0c0 0 0 0 0 0 9 0 21 0 36-2 1-1 2-1 3-1 1 0 1 0 1 0 21-4 44-13 68-29z m-19-444l-12 2c0 0 0 0 0 0-4 1-7 3-9 6-2 3-2 6-2 10l34 177c1 3 2 6 5 8 3 2 5 2 8 2 1 0 1 0 2 0l12-2c7-1 12-8 11-16l-34-177c-1-7-8-12-15-10z m61 37l-23-2 0 4 18 93 21-9z"/>
<glyph glyph-name="heart" unicode="&#102;" d="M232 38c7-6 15-10 24-10 9 0 18 4 24 10l188 188c28 28 44 66 44 107 0 40-16 78-44 106-29 29-66 44-107 44-39 0-77-15-105-42-28 27-66 43-105 43-41 0-78-16-107-44-28-29-44-67-44-107 0-40 16-78 44-107z m-170 383c24 24 55 37 89 37 33 0 65-13 88-37l8-7c3-3 6-4 9-4 4 0 7 1 9 4l8 7c24 24 55 37 88 37 34 0 65-13 89-37 24-24 37-55 37-88 0-34-14-65-37-89l-188-188c-3-3-9-3-12 0l-188 188c-23 24-36 55-36 89 0 33 13 65 36 88z"/>
<glyph glyph-name="profile" unicode="&#103;" d="M255 226c76 0 137 62 137 137 0 76-61 137-137 137-76 0-137-62-137-137 0-75 61-137 137-137z m0 238c56 0 101-45 101-101 0-55-45-101-101-101-55 0-101 46-101 101 0 56 46 101 101 101z m-237-452l476 0c10 0 18 8 18 18 0 95-77 172-172 172l-168 0c-95 0-172-77-172-172 0-10 8-18 18-18z m154 154l168 0c69 0 126-51 135-118l-438 0c9 66 66 118 135 118z"/>
<glyph glyph-name="search" unicode="&#104;" d="M495 46l-118 118c29 35 47 81 47 130 0 114-92 207-206 207-115 0-207-93-207-207 0-114 92-206 207-206 49 0 95 17 130 47l118-118c8-8 21-8 29 0 8 8 8 21 0 29z m-277 83c-92 0-166 74-166 165 0 92 74 166 166 166 91 0 165-74 165-166 0-91-74-165-165-165z"/>
<glyph glyph-name="telephone" unicode="&#105;" d="M104 172c51-61 112-108 181-142 26-12 62-27 101-30 3 0 5 0 7 0 27 0 48 9 65 28 0 0 1 0 1 0 6 8 13 15 20 22 5 4 10 9 15 15 23 23 23 53 0 76l-64 64c-11 11-24 17-37 17-14 0-27-6-38-17l-38-38c-3 2-7 3-10 5-5 2-9 4-12 7-35 22-66 50-96 87-15 19-25 35-33 52 10 9 20 18 29 27 3 4 6 7 9 10 12 12 18 25 18 38 0 14-6 27-18 39l-31 31c-4 4-7 8-11 11-7 8-14 15-21 22-11 10-24 16-38 16-13 0-26-6-38-16l-39-40c-15-15-23-32-25-52-2-26 3-53 15-85 19-51 47-97 88-147z m-77 229c2 15 7 26 17 37l40 39c6 6 13 9 19 9 7 0 13-3 19-9 7-7 14-14 21-21 4-4 8-7 11-11l32-32c6-6 10-13 10-20 0-6-4-13-10-20-3-3-7-6-10-10-10-10-19-19-29-28 0 0-1 0-1 0-9-9-7-18-5-24 0 0 0-1 0-1 8-20 20-38 37-60 32-40 66-70 103-94 4-3 9-5 14-7 4-2 8-4 11-7 1 0 1 0 2 0 3-2 7-3 10-3 8 0 14 5 16 7l39 40c7 6 13 9 20 9 8 0 14-5 19-9l64-64c12-13 12-26-1-40-4-5-9-9-14-14-7-7-15-15-22-23-12-13-27-19-46-19-1 0-3 0-5 0-35 2-67 16-92 27-66 32-123 77-172 135-39 48-66 92-83 140-11 29-15 52-14 73z"/>
<glyph glyph-name="truck" unicode="&#106;" d="M509 211l-75 87c-2 2-5 3-8 3l-66 0 0 61c0 6-4 10-10 10l-147 0c-10 46-51 81-100 81-57 0-103-47-103-103 0-23 7-43 19-60l0-152-9 0c-5 0-10-4-10-10 0-6 5-10 10-10l9 0 0-12c0-6 5-10 10-10l20 0c5-21 24-37 46-37 22 0 40 16 45 37l239 0c5-21 23-37 45-37 22 0 41 16 46 37l32 0c5 0 10 4 10 10l0 98c0 3-1 5-3 7z m-303 141l134 0 0-171-300 0 0 87c17-13 39-21 63-21 57 0 103 46 103 103 0 0 0 1 0 2z m-186-2c0 45 37 82 83 82 46 0 83-37 83-82 0-46-37-83-83-83-46 0-83 37-83 83z m75-270c-15 0-26 12-26 26 0 14 11 26 26 26 14 0 26-12 26-26 0-14-12-26-26-26z m245 36l-200 0c-5 21-23 36-45 36-22 0-41-15-46-36l-9 0 0 45 300 0 0-45z m96 148l44-50-44 0z m-12-184c-14 0-26 12-26 26 0 14 12 26 26 26 15 0 26-12 26-26 0-14-11-26-26-26z m68 36l-22 0c-5 21-24 36-46 36-22 0-40-15-45-36l-19 0 0 165 55 0 0-77c0-6 5-11 10-11l67 0z m-177 97l-86 0c-5 0-10-5-10-10 0-6 5-11 10-11l86 0c6 0 10 5 10 11 0 5-4 10-10 10z m-117 0l-6 0c-6 0-10-5-10-10 0-6 4-11 10-11l6 0c5 0 10 5 10 11 0 5-5 10-10 10z m-65 121l-20 20 0 57c0 5-4 10-10 10-6 0-10-5-10-10l0-61c0-3 1-6 3-8l22-22c2-2 5-3 7-3 3 0 6 1 8 3 4 4 4 10 0 14z"/>
<glyph glyph-name="secure-shield" unicode="&#107;" d="M466 424c-70 19-141 49-205 87-3 2-7 2-10 0-66-39-133-68-205-87-5-2-8-6-8-11l0-110c0-113 52-188 96-231 47-46 102-72 122-72 20 0 75 26 122 72 44 43 96 118 96 231l0 110c0 5-3 9-8 11z m-13-121c0-106-49-176-90-216-46-45-96-65-107-65-11 0-61 20-107 65-41 40-90 110-90 216l0 102c70 20 134 47 197 84 61-36 129-65 197-84z m-292 103c-3 6-9 8-14 6-20-7-39-14-59-20-5-2-8-6-8-11l0-41c0-6 5-11 11-11 6 0 11 5 11 11l0 33c18 6 35 12 52 19 6 2 9 9 7 14z m20-2c1 0 3 0 4 1l1 0c5 3 7 9 5 14-2 6-9 8-14 6l0 0c-6-3-8-9-6-14 2-4 6-7 10-7z m203-239c-5 3-11 2-15-3-8-14-19-27-31-39-9-10-20-19-30-28-5-3-6-10-2-15 2-2 5-4 8-4 2 0 5 1 7 2 11 9 23 19 33 30 13 13 24 27 33 42 4 5 2 11-3 15z m-101-86l-1-1c-5-3-7-9-4-15 2-3 6-5 9-5 2 0 4 1 6 2l0 0c6 3 7 10 4 15-3 5-9 7-14 4z m-100 199c-7 7-16 10-25 10-10 0-18-3-25-10-14-14-14-36 0-50l64-63c6-7 15-10 24-10 10 0 19 3 25 10l133 133c14 13 14 35 0 49-7 7-15 10-25 10-9 0-18-3-25-10l-108-108z m162 54c2 2 6 4 9 4 4 0 7-2 10-4 5-5 5-14 0-19l-133-133c-3-2-6-4-10-4-3 0-7 2-9 4l-64 64c-5 5-5 13 0 19 3 2 6 4 10 4 3 0 7-2 9-4l47-47c2-2 5-3 7-3 3 0 6 1 8 3z"/>
<glyph glyph-name="close" unicode="&#108;" d="M430 36l-404 404c-11 11-11 31 0 41l7 8c11 10 31 10 41 0l405-405c10-10 10-30 0-40l-8-8c-10-13-28-13-41 0z m49 402l-405-405c-10-10-30-10-41 0l-7 8c-11 10-11 31 0 41l404 404c10 11 31 11 41 0l8-7c10-11 10-28 0-41z"/>
<glyph glyph-name="administrator" unicode="&#109;" d="M481 98c-11 16-26 27-44 32 0 0 0 0 0 0l-64 13-17 26c0 0-1 0-1 1-2 3-6 5-10 6-5 0-9-1-13-4 0 0 0 0 0 0l-76-65-76 65c0 0 0 0 0 0-4 3-8 4-13 4-4-1-8-3-10-6 0-1-1-1-1-1l-17-26-64-13c0 0 0 0 0 0-18-5-33-16-44-32-10-14-15-32-15-49l0-20c0-16 14-29 32-29l184 0c0 0 0 0 0 0 0 0 0 0 0 0l48 0c0 0 0 0 0 0 0 0 0 0 0 0l184 0c18 0 32 13 32 29l0 20c0 17-5 35-15 49z m-138 62l15-24-55-76-17 18c0 0 0 0 0 0l-18 18z m-95-120l16 0c0 0 1 0 1 0l5-24-28 0 5 24c0 0 1 0 1 0z m24 24c0-4-4-8-8-8l-16 0c-4 0-8 4-8 8l0 5 16 16 16-16z m-103 96l75-64-18-18c0 0 0 0 0 0l-17-18-55 76z m-137-131l0 20c0 26 16 56 47 65l62 13 61-84c1-2 3-3 5-3 1 0 1 0 1 0 2 0 4 1 6 2l12 13c1-3 3-6 6-8l-7-31-177 0c-9 0-16 6-16 13z m448 0c0-7-7-13-16-13l-177 0-7 31c3 2 5 5 6 8l12-13c2-1 4-2 6-2 0 0 0 0 1 0 2 0 4 1 5 3l61 84 62-13c31-9 47-39 47-65z m-360 228l0-97c0-4 4-8 8-8 4 0 8 4 8 8l0 96 7 0c6-19 16-36 28-51 23-29 53-45 85-45 25 0 49 10 69 28 0 0 0 0 1 0 1 0 2 0 3 0 10 0 19 2 29 7 30 14 50 48 50 85l0 48c0 13-11 24-24 24l-3 0c17 68 9 123 2 139 0 0 0 0 0 0 0 0 0 1 0 1 0 0 0 0 0 0 0 0 0 0 0 0 0 0 0 1-1 1 0 0 0 0 0 0 0 0 0 0 0 0 0 0 0 0 0 0 0 1 0 1-1 1 0 0 0 0 0 0 0 0 0 0 0 0 0 0 0 0 0 0-1 1-1 1-1 1 0 0 0 0 0 0 0 0 0 0 0 0-1 0-1 0-1 0 0 0 0 0 0 0 0 0 0 1-1 1 0 0 0 0 0 0 0 0 0 0 0 0 0 0-1 0-1 0 0 0 0 0 0 0 0 0 0 0 0 0-1 0-1 0-1 0 0 0 0 0 0 0 0 0 0 0-1 0 0 0 0 0 0 0 0 0 0 0 0 0-20-3-44 2-70 7-43 9-88 18-123-7 0 0-1 0-1 0-36 0-61-30-61-72 0-20 5-49 9-72l-1 0c-13 0-24-11-24-24l0-48c0-10 7-19 16-23z m231-48c-17-8-35-7-49 5 1 3 2 6 2 10 0 13-11 24-24 24-13 0-24-11-24-24 0-13 11-24 24-24 4 0 7 1 10 2 1 0 1 0 1 0 5-4 10-7 15-9-16-11-33-17-50-17-27 0-53 14-73 39-20 24-31 57-31 89l0 9c0 29 16 67 21 80 56 6 100 0 127-7 24-6 40-13 46-16l14-34 0-32c0-26-8-53-21-76-3-4-2-9 2-11 1-1 3-1 4-1 3 0 6 1 7 4 7 11 13 23 17 36l15 0c2 0 3 0 5 0-7-20-21-38-38-47z m-63 15c0-4-4-8-8-8-4 0-8 4-8 8 0 4 4 8 8 8 4 0 8-4 8-8z m104 104l0-48c0-4-4-8-8-8l-11 0c2 11 3 21 3 32l0 32 8 0c4 0 8-4 8-8z m-211 152c0 0 1 0 2 0 2 0 5 0 7 2 29 22 71 14 112 5 21-4 41-8 60-8 3 0 6 0 9 0 4-17 9-62-4-117l-8 17c0 2-2 3-3 4-3 2-74 40-189 25 0 0 0 0 0 0 0 0 0 0-1 0 0 0 0 0 0 0 0 0 0 0 0 0-1-1-2-1-3-2 0 0 0 0 0 0 0 0 0 0 0 0 0 0-1-1-1-1 0 0 0 0 0 0 0 0 0 0-1 0 0-1 0-1 0-1 0 0 0 0 0 0 0 0 0 0 0-1 0 0 0 0 0 0-1-1-10-20-17-43-4 21-8 47-8 64 0 39 22 56 45 56z m-61-152c0 4 4 8 8 8l5 0c1-7 2-12 3-14l0-18c0-11 1-21 3-32l-11 0c-4 0-8 4-8 8z"/>
<glyph glyph-name="email" unicode="&#110;" d="M503 438l-494 0c-5 0-9-4-9-9l0-346c0-5 4-9 9-9 0 0 0 0 0 0l494 0c5 0 9 4 9 9l0 346c0 5-4 9-9 9z m-23-19l-224-224-224 224z m13-313l-119 120c-4 3-10 3-14 0-3-4-3-10 0-14l120-119-448 0 120 119c3 4 3 10 0 14-4 3-10 3-14 0l-119-120 0 300 230-231c2-1 5-2 7-2 2 0 5 1 7 2l230 231z"/>
<glyph glyph-name="envelope" unicode="&#111;" d="M0 439l0-366 512 0 0 366z m313-188l-47-47c-6-5-14-5-20 0l-47 47 1 1-169 170 450 0-169-170z m-138 0l-158-152 0 311z m12-12l47-47c6-6 14-8 22-8 8 0 16 2 22 8l47 47 155-149-449 0z m150 12l158 159 0-311z"/>
<glyph glyph-name="letter" unicode="&#112;" d="M502 422l-492 0c-5 0-10-5-10-11l0-268c0-29 23-53 52-53l408 0c29 0 52 24 52 53l0 268c0 6-5 11-10 11z m-10-279c0-18-15-32-32-32l-408 0c-17 0-32 14-32 32l0 246 230-187c1-2 4-3 6-3 2 0 5 1 6 3l178 144c4 4 5 10 1 15-3 4-10 5-14 1l-171-139-218 178 454 0z m-22 241c-4 5-10 5-14 2l-3-3c-5-3-5-10-2-14 2-3 5-4 8-4 2 0 5 1 6 2l3 3c5 3 5 10 2 14z"/>
<glyph glyph-name="telemarketer-1" unicode="&#113;" d="M462 33l-12 36c-5 14-13 27-23 37-20 20-46 31-74 31l0 0-28 28c0 7 1 15 2 22 1 9 2 18 4 27 11 12 18 27 19 43 0 2 0 4 0 7-1 3-1 6-1 9l9 0c15 0 26 12 26 26l0 26c12 2 21 13 21 26l0 27c0 74-57 134-128 134l-42 0c-71 0-128-60-128-134l0-27c0-13 9-24 21-26l0-18-1 0c-14 0-25-12-25-25l10-38c5-18 21-30 39-31l30 0c2-9 3-17 4-26 1-7 2-15 2-22l-28-28 0 0c-28 0-54-11-74-31-10-10-18-23-24-37l-11-36c-4-13 3-27 17-32 2-1 5-1 8-1l362 0c15 0 26 12 26 26 0 2 0 5-1 7z m-125 95l-46-40-13 13-9 9 46 41z m-81-29l9-10c0 0 1 0 1 0l12-12-22-22-22 22z m0 24l-52 44c0 7-1 15-2 22 0 1 0 2 0 3 5-5 11-10 17-15 21-18 53-18 74 0 6 5 12 10 17 15 0-1 0-2 0-3-1-7-2-15-2-22l-52-45 0 1z m-94 231l0 0 4 0 0 0z m1-64l-9 0c-5 0-9 4-9 9l0 42c0 5 4 9 9 9l0 0c0-5 1-11 2-16 4-14 7-29 7-44z m-1 97c0 41 42 74 94 74 52 0 94-33 94-74 0-10-3-19-7-28-7 13-21 21-36 22-19-1-36 12-41 31 0 3-4 6-8 6l-4 0c-4 0-8-3-8-6-5-19-22-32-41-31-15-1-29-9-36-22-4 9-7 18-7 28z m205-88c0-5-4-9-9-9l-9 0c0 15 3 30 7 45 1 5 2 10 2 15l0 0c5 0 9-4 9-9z m-243 52l0 27c0 64 50 117 111 117l42 0c62 0 111-53 111-117l0-27c0-4-1-7-4-8-1 11-9 21-20 23 2 7 3 14 3 21 0 50-50 91-111 91-61 0-111-41-111-91 0-7 1-14 3-21-11-2-19-12-20-23-3 1-4 4-4 8z m27-121c-11 1-20 8-22 19l-9 34c0 4 3 7 7 7l3 0c3-10 13-17 24-17l9 0c0-3 0-6-1-9 0-3 0-5 0-7 0-10 3-19 8-27z m28 27c0 2 0 3 0 5 3 23 1 47-4 69 4 13 13 33 30 33 21-1 40 10 51 28 11-18 30-29 51-28 17 0 26-20 30-33-5-22-7-46-4-69 0-2 0-3 0-5 0-17-18-40-50-67-16-12-38-12-54 0-8 7-17 15-25 23l35 0c5 0 8 4 8 9 0 5-3 8-8 8l-49 0c-6 8-10 17-11 27z m18-106l46-41-10-10-12-12-46 40z m20-134l-142 0c-3 0-6 1-7 4-2 2-2 5-2 7l12 35c8 23 25 41 48 50 10 5 21 7 32 7l58-49 21-21z m20 0l13 22c4-2 8-2 12 0l13-22z m207 4c-1-3-4-4-7-4l-142 0-20 33 21 21 58 49c23 0 44-9 60-26 9-8 16-19 20-30l12-36c0-2 0-5-2-7z m-179 244l-18 0c-4 0-8-4-8-9 0-5 4-9 8-9l18 0c4 0 8 4 8 9 0 5-4 9-8 9z m-35 59l-34 0c-4 0-8-4-8-8 0-5 4-9 8-9l9 0 0-8c0-5 4-9 8-9 5 0 9 4 9 9l0 8 8 0c5 0 9 4 9 9 0 4-4 8-9 8z m86 0l-34 0c-5 0-9-4-9-8 0-5 4-9 9-9l8 0 0-8c0-5 4-9 9-9 4 0 8 4 8 9l0 8 9 0c4 0 8 4 8 9 0 4-4 8-8 8z"/>
<glyph glyph-name="telemarketer-2" unicode="&#114;" d="M438 87c-11 37-43 65-82 70l-42 7 0 9c14 8 27 20 37 33l13 0c18 0 32 15 32 33l0 3c24 7 42 29 42 55 0 23-14 43-33 52l0 14c0 82-67 149-149 149-82 0-149-67-149-149l0-14c-19-9-33-29-33-52 0-32 26-58 58-58l13 0c9-28 28-52 53-66l0-9-42-7c-39-5-71-33-82-70l-27-87 418 0z m-108 58l-14-79-48 42 40 40z m-74-26l-41 41 0 5c13-5 26-8 41-8 15 0 28 3 41 8l0-5z m124 120c0-9-7-16-16-16l-4 0c3 5 5 11 7 16l13 0z m41 58c0-17-10-31-25-38l0 22-16 0 0-25-10 0c1 5 2 11 2 17l0 66 8 0c23 0 41-19 41-42z m-289-41c-23 0-41 19-41 41 0 23 18 42 41 42l8 0 0-66c0-6 1-12 2-17z m8 99l-8 0c-3 0-5 0-8-1l0 9c0 73 59 132 132 132 73 0 132-59 132-132l0-9c-3 1-5 1-8 1l-17 0c-17 0-32 10-40 25l-5 11-8-4c-48-21-99-32-152-32z m17-82l0 66 1 0c53 0 104 10 152 30 10-16 26-27 45-30l0-66c0-19-5-35-13-50l-46 0c-4 10-13 16-23 16l-34 0c-13 0-24-11-24-24 0-14 11-25 24-25l34 0c10 0 19 7 23 16l34 0c-19-20-45-33-74-33-55 0-99 45-99 100z m124-58c0-5-4-9-8-9l-34 0c-4 0-8 4-8 9 0 4 4 8 8 8l34 0c4 0 8-4 8-8z m-77-67l40-40-48-42-14 79z m168-73l-17-2 7-56-212 0 7 56-17 2-7-58-64 0 21 65c9 31 36 54 68 59l8 1 18-108 72 62 72-62 18 108 8-1c32-5 59-28 68-59l21-65-64 0z m-157 243c0-7-6-12-13-12-7 0-12 5-12 12 0 7 5 12 12 12 7 0 13-5 13-12z m107 0c0-7-5-12-12-12-7 0-13 5-13 12 0 7 6 12 13 12 7 0 12-5 12-12z"/>
<glyph glyph-name="mail" unicode="&#115;" d="M415 157c-2 0-5 1-6 2l-95 89c-3 3-4 9 0 12 3 3 8 3 11 0l95-89c4-3 4-8 1-12-2-1-4-2-6-2z m-318 0c-2 0-4 1-6 2-3 4-3 9 1 12l95 89c3 3 8 3 11 0 4-3 3-9 0-12l-95-89c-1-1-4-2-6-2z m374-83l-430 0c-22 0-41 19-41 41l0 282c0 22 19 41 41 41l430 0c22 0 41-19 41-41l0-282c0-22-19-41-41-41z m-430 347c-13 0-24-11-24-24l0-282c0-13 11-24 24-24l430 0c13 0 24 11 24 24l0 282c0 13-11 24-24 24z m215-206c-11 0-22 3-30 10l-212 185c-4 3-4 9-1 12 3 3 8 4 12 1l212-185c10-9 28-9 38 0l212 185c4 3 9 2 12-1 3-4 2-9-1-12l-212-185c-8-7-19-10-30-10z"/>
<glyph glyph-name="map" unicode="&#116;" d="M507 413l-128 60c0 0 0 0 0 0-1 0-1 0-1 0-1 0-1 0-1 0-1 1-1 1-1 1-1 0-1 0-1 0-1-1-1-1-2-1 0 0 0 0-1 0 0 0 0 0 0 0l-116-50-116 50c0 0 0 0 0 0-1 0-1 0-1 0-1 0-1 0-1 1-1 0-1 0-1 0-1 0-1 0-1 0-1 0-1-1-1-1-1 0-1 0-1 0 0 0-1 0-1 0l-128-51c-3-1-5-5-5-8l0-367c0-3 1-6 4-7 1-1 3-2 5-2 1 0 2 1 3 1l124 50 117-50c0 0 0 0 0 0 1 0 2-1 3-1 1 0 2 1 3 1 0 0 0 0 0 0l117 50 124-50c1 0 2-1 3-1 2 0 4 1 5 2 3 1 4 4 4 7l0 358c0 4-2 7-5 8z m-490-5l111 44 0-348-111-44z m128 44l102-44 0-348-102 44z m120-44l102 44 0-348-102-44z m230-348l-111 44 0 348 111-52z"/>
<glyph glyph-name="map-1" unicode="&#117;" d="M70 223c-16 0-30-13-30-30 0-14 10-25 23-29l0-28c0-4 3-8 7-8 4 0 8 4 8 8l0 28c13 4 22 15 22 29 0 17-13 30-30 30z m0-45c-8 0-15 7-15 15 0 8 7 15 15 15 8 0 15-7 15-15 0-8-7-15-15-15z m121-36l-10 0c-4 0-8-3-8-8 0-4 4-7 8-7l10 0c4 0 7 3 7 7 0 5-3 8-7 8z m40 0l-10 0c-4 0-8-3-8-8 0-4 4-7 8-7l10 0c4 0 7 3 7 7 0 5-3 8-7 8z m0 77l-10 0c-4 0-7-3-7-8 0-4 3-7 7-7l10 0c5 0 8 3 8 7 0 5-3 8-8 8z m-57 51c-4 1-7-2-8-6 0-3 0-5 0-7 0-2 0-3 0-5 0-4 4-7 7-7 1 0 1 0 1 0 4 1 7 4 7 8 0 2 0 3 0 4 0 2 0 3 0 5 0 4-2 8-7 8z m23-44c-2 1-4 3-6 5-3 3-8 3-11 0-3-2-3-7 0-10 3-3 6-6 9-8 1-1 3-1 4-1 2 0 5 1 6 3 3 4 2 8-2 11z m3 74c-2 3-6 4-10 2-3-2-6-5-9-8-3-2-3-7 0-10 2-2 4-2 5-2 2 0 4 0 6 2 2 2 4 4 6 5 4 2 5 7 2 11z m111-81l-10 0c-4 0-7-3-7-8 0-4 3-7 7-7l10 0c5 0 8 3 8 7 0 5-3 8-8 8z m153-54c-4 2-8 0-10-4-1-3-2-5-4-7-2-3-2-8 1-10 2-2 3-2 5-2 2 0 4 1 6 3 2 3 4 6 6 10 2 4 0 8-4 10z m-26-29c0 4-4 7-8 6-2 0-3 0-5 0l-4 0c-4 0-8-3-8-8 0-4 4-7 8-7l4 0c3 0 5 0 7 0 4 1 7 5 6 9z m-6 82c-2 1-4 1-7 1l-4 0c-4 0-7-3-7-8 0-4 3-7 7-7l4 0c2 0 4 0 5 0 1 0 1 0 1 0 4 0 7 2 8 6 0 4-3 8-7 8z m-321-76l-10 0c-4 0-8-3-8-8 0-4 4-7 8-7l10 0c4 0 7 3 7 7 0 5-3 8-7 8z m240 0l-10 0c-4 0-8-3-8-8 0-4 4-7 8-7l10 0c4 0 7 3 7 7 0 5-3 8-7 8z m-40 0l-10 0c-4 0-8-3-8-8 0-4 4-7 8-7l10 0c4 0 7 3 7 7 0 5-3 8-7 8z m157 48c-1 4-3 7-6 10-2 4-7 4-10 2-3-3-4-7-2-11 2-2 3-4 4-7 1-2 4-4 7-4 1 0 2 0 3 0 4 2 6 6 4 10z m-117 29l-10 0c-4 0-7-3-7-8 0-4 3-7 7-7l10 0c4 0 8 3 8 7 0 5-4 8-8 8z m-41 265c-18 0-35-5-50-16-4-2-5-7-2-10 2-3 7-4 10-2 13 9 27 13 42 13 41 0 74-33 74-73 0-41-33-74-74-74-40 0-73 33-73 74 0 14 4 28 12 40 2 4 1 8-2 11-4 2-8 1-10-2-10-15-15-32-15-49 0-49 40-89 88-89 49 0 89 40 89 89 0 49-40 88-89 88z m194-374c4 0 7 3 7 8l0 257c0 3-1 6-4 7l-82 36c-5 22-16 43-32 60-22 21-50 33-80 34 0 0 0 0 0 0-1 0-2 0-3 0-1 0-2 0-3 0 0 0 0 0 0 0-30-1-58-13-79-34-18-19-30-42-33-68l-60 26c0 1 0 1 0 1 0 0 0 0-1 0 0 0 0 0 0 0 0 0 0 0-1 0 0 0 0 0 0 0 0 0 0 0 0 0-1 0-1 0-1 0 0 0 0 0 0 0-1 0-1 0-1 0 0 0 0 0 0 0 0 0-1 0-1 0 0 0 0 0 0 0 0 0 0 0-1 0 0 0 0 0 0-1l-124-54c-3-1-4-4-4-7l0-50c0-4 3-7 7-7 4 0 8 3 8 7l0 45 109 48 0-351-109-48 0 276c0 5-4 8-8 8-4 0-7-3-7-8l0-288c0-2 1-4 3-6 1-1 3-1 4-1 1 0 2 0 3 1l121 53 121-53c0 0 1-1 1-1 0 0 0 0 0 0 0 0 1 0 1 0 0 0 0 0 0 0 0 0 1 0 1 0l0 0c0 0 1 0 1 0 0 0 0 0 0 0 0 0 1 0 1 0 0 0 0 0 0 0 0 0 1 1 1 1l121 53 121-53c1-1 2-1 3-1 1 0 3 0 4 1 2 2 3 4 3 6l0 81c0 4-3 7-7 7-4 0-8-3-8-7l0-69-109 48 0 60 4 0c4 0 7 3 7 7 0 5-3 8-7 8l-4 0 0 62 4 0c4 0 8 3 8 7 0 5-4 8-8 8l-4 0 0 55c0 0 0 0 1 0 0 0 0 0 0 0 0 0 0 0 0 0 0 0 0 0 0 0 0 0 1 0 1 0 0 0 0 0 0 0 0 0 0 0 0 0 0 0 0 0 0 0 0 0 1 0 1 0 0 0 0 1 0 1 0 0 0 0 0 0 1 0 1 0 1 0 0 0 0 0 0 0 0 0 0 0 0 0 0 0 0 0 0 0 1 0 1 0 1 0 0 0 0 1 0 1 0 0 0 0 0 0 1 0 1 0 1 0l1 1 44-44c1-1 2-1 2-2 0 0 0 0 0 0 5-3 10-5 16-5 5 0 11 2 15 5 0 0 0 0 0 0 1 1 1 1 2 2 5 5 7 11 7 17 0 7-2 13-7 18l-44 44 1 1c3 3 3 8 0 11l-17 16c0 1 0 2 1 2 0 1 0 1 1 2 0 1 1 2 1 3 0 0 0 0 0 1 8 17 11 35 11 53l69-31 0-252c0-5 4-8 8-8z m-364 17c0 0 0 0 1 0l10 0c4 0 7 3 7 7 0 5-3 8-7 8l-10 0c-1 0-1 0-1 0l0 276 54-24c0-30 12-59 34-81 1-1 2-2 3-3 0 0 0 0 0 0l-8 0c-4 0-8-3-8-7 0-4 4-8 8-8l10 0c4 0 7 4 7 8 0 0 0 0 0 0 1 0 1-1 1-1 3-2 5-3 7-5 0 0 0 0 1 0l0-278-109 48z m69 263c0 0 0 0 0 1 0 0 0 1 0 1 0 0 0 1 0 1 0 1 0 1 0 1 0 1 0 1 0 2 0 0 0 0 0 0 0 1 0 2 0 3 0 0 0 0 0 0 2 53 45 97 99 98 0 0 0 0 0 0 1 0 1 0 2 0 51 0 93-37 100-85 0 0 0 0 0 0 3-15 2-30-2-44 0 0 0 0 0-1-1-1-1-2-1-3 0-1-1-1-1-1 0-1 0-2-1-3 0-1 0-1-1-2 0-1 0-1 0-2-16-36-52-62-94-62-54 0-98 43-101 96z m163-323l-109-48 0 108 8 0c4 0 7 3 7 7 0 5-3 8-7 8l-8 0 0 62 8 0c5 0 8 3 8 7 0 5-3 8-8 8l-8 0 0 70c28-12 59-13 87-3 0 0 0 0 0 0 3 1 6 2 8 4 1 0 2 0 2 1 1 0 1 0 2 0 1 1 2 1 3 2 0 0 0 0 1 0l6-7z m90 190l0 0c2-2 3-4 3-7 0-2-1-5-3-6 0-1 0-1 0-1 0 0 0 0 0 0-1 0-1 0-1-1 0 0 0 0 0 0-4-2-8-2-11 1 0 0 0 0 0 0-1 0-1 0-1 1l-44 44 13 13z m-48 61l-1-1c0 0 0 0 0 0l-25-25-3 3-6 6c5 4 9 8 14 12 4 5 8 9 12 14z m-56 96c-1 2-3 4-6 5l-24 3-11 22c-2 2-4 4-7 4-3 0-6-2-7-4l-10-22-25-4c-2-1-5-3-6-5 0-3 0-6 2-8l18-17-4-24c0-3 1-6 3-8 2 0 3-1 5-1 1 0 2 0 3 1l22 12 22-11c2-2 5-2 8 0 2 2 3 5 3 8l-5 24 17 17c2 2 3 5 2 8z m-32-17c-2-2-3-5-2-7l2-13-12 6c-2 1-5 1-7 0l-11-7 2 14c0 2-1 4-3 6l-9 9 13 2c2 1 4 2 5 5l6 12 6-12c1-2 3-4 6-4l13-2z"/>
<glyph glyph-name="map-2" unicode="&#118;" d="M485 416c-1 0-1 0-1 0l-37 8c-4 6-8 12-13 17-3 3-8 4-11 1-3-3-3-8 0-11 22-23 23-59 2-83-39-45-37-43-38-44-3-3-6-4-9-3-6 2-7 7-43 47-41 49 9 120 66 98 4-1 8 0 9 4 2 4 0 9-4 10-27 11-55 3-74-13-8-7-14-15-18-23l-58-12c-132 27-124 25-126 25l-62-13c-4 0-7-4-6-8 1-5 5-7 9-6l53 10 0-251c-19-7-20-35 0-42l0-41-92-19c-6-1-10-1-12 2-4 3-5 8-5 10l0 295c0 30 22 28 26 30 4 0 7 4 6 9-1 4-5 6-9 5l-10-2c0 0 0 0-1 0-15-4-27-18-27-42l0-295c0-1 0-14 10-22 7-6 16-6 25-5l97 20 65-13c4-1 8 2 8 6 1 4-1 8-5 8l-61 13 0 41c16 6 20 27 8 38 14 26 44 60 102 41l0-142-19 3c-4 1-8-1-9-5-1-4 2-8 6-9 30-6 28-6 30-6l123 25 97-20c9-1 18-1 25 5 10 8 10 21 10 22l0 295c0 31-19 40-27 42z m-353-275c-4 0-8 3-8 7 0 4 4 8 8 8 4 0 7-4 7-8 0-4-3-7-7-7z m117 81c-47 14-85-3-110-40l0 238 110-22z m244-153c-3-3-7-3-13-2l-92 19c0 15 0 118 0 135 0 4-4 7-8 7-4 0-7-3-7-7 0-17 0-120 0-135l-109-22 0 137c48-15 87 0 112 35 14-3 27 8 27 22 0 12-10 22-23 22-19 0-29-22-17-36-24-34-60-40-99-27l0 181 44 9c-6-22-2-46 13-65 3-3 2-3 40-46 10-13 27-14 39 0 38 44 40 45 44 52 11 18 14 39 9 59l28-5c7-2 16-9 16-28l0-295c0-1-1-7-4-10z m-120 189c0 4 3 7 7 7 4 0 8-3 8-7 0-4-4-7-8-7-4 0-7 3-7 7z m7 172c-23 0-41-18-41-41 0-23 18-42 41-42 23 0 42 19 42 42 0 23-19 41-42 41z m0-68c-14 0-26 12-26 27 0 14 12 26 26 26 15 0 27-12 27-26 0-15-12-27-27-27z"/>
<glyph glyph-name="map-3" unicode="&#119;" d="M450 499c-31 0-57-23-61-53l-266 0c-4 30-30 53-61 53-34 0-62-28-62-62l0-362c0-34 28-62 62-62l388 0c34 0 62 28 62 62l0 362c0 34-28 62-62 62z m-432-62c0 24 19 44 44 44 24 0 44-20 44-44l0-319c-11 12-27 19-44 19-17 0-33-7-44-19z m432-406l-247 0 0 9c0 5-4 9-9 9-5 0-9-4-9-9l0-9-17 0 0 35c0 5-4 9-9 9-5 0-9-4-9-9l0-35-88 0c-25 0-44 20-44 44 0 24 19 44 44 44 24 0 44-20 44-44l18 0 0 353 176 0 0-35c0-5 4-9 9-9 5 0 9 4 9 9l0 35 17 0 0-18c0-4 4-8 9-8 5 0 9 4 9 8l0 18 35 0 0-353 18 0c0 24 20 44 44 44 25 0 44-20 44-44 0-24-19-44-44-44z m44 87c-11 12-27 19-44 19-17 0-33-7-44-19l0 319c0 24 20 44 44 44 25 0 44-20 44-44z m-297 141c-2 6-3 13-3 19 0 5-4 9-9 9-5 0-8-4-8-9 0-8 1-16 3-24 1-4 5-6 9-6 1 0 1 0 2 0 5 1 8 6 6 11z m32-40c-7 5-14 11-20 17-3 4-8 5-12 2-4-3-4-9-1-13 7-8 15-15 24-21 2-1 3-1 5-1 3 0 6 2 7 4 3 5 1 10-3 12z m69-15c-8 2-16 3-24 3-7 0-14 1-20 3-5 1-10-2-11-7-1-5 2-9 7-11 8-1 16-2 24-2 6 0 13-1 19-3 1 0 1-1 2-1 4 0 8 3 9 7 1 4-1 9-6 11z m49-40c-5 9-12 17-21 24-3 3-9 3-12-1-3-4-2-9 1-12 7-6 13-13 17-20 2-3 5-5 8-5 1 0 3 1 4 2 5 2 6 8 3 12z m2-23c-5-1-8-6-7-11 2-6 2-13 2-20 0-5 4-8 9-8 5 0 9 3 9 8 0 8-1 16-3 24-1 5-6 8-10 7z m-143 148l12 13-20 20 20 20-12 13-21-20-20 20-12-13 20-20-20-20 12-13 20 21z"/>
<glyph glyph-name="placeholder" unicode="&#120;" d="M256 236c-48 0-88 39-88 87 0 49 40 88 88 88 48 0 88-39 88-88 0-48-40-87-88-87z m0 160c-40 0-72-33-72-73 0-39 32-72 72-72 40 0 72 33 72 72 0 40-32 73-72 73z m0-396c-2 0-4 1-6 3-7 9-183 219-183 320 0 104 85 189 189 189 104 0 189-85 189-189 0-101-176-311-183-320-2-2-4-3-6-3z m0 497c-95 0-173-78-173-174 0-85 142-265 173-303 31 38 173 218 173 303 0 96-78 174-173 174z"/>
<glyph glyph-name="street-map" unicode="&#121;" d="M508 473c-3 2-6 2-8 1l-121-53-245 53c-2 1-4 1-6 0l-123-54c-3-2-5-5-5-8l0-366c0-3 2-6 4-7 1-1 3-2 5-2 1 0 2 1 3 1l121 53 245-53c2-1 4-1 6 0l123 54c3 2 5 5 5 8l0 366c0 3-2 6-4 7z m-164-307l-54 75c-19 26-16 63 7 86 13 13 30 19 47 19 17 0 34-6 47-19 24-23 26-60 7-86z m-194-61l20 21 105 105c0 0 1-1 1-1l40-55-87-87z m278 181c-1 20-10 39-24 53-3 3-5 5-8 7l98 98 0-285-77 78c9 15 13 32 11 49z m-44 118l79 35-82-83c-26 12-55 11-80-4l-47 48 24 25 100-22c2 0 4 0 6 1z m-251 53l125-28-42-41c-3-3-3-9 0-13 2-1 4-2 7-2 2 0 4 1 6 2l12 13 46-46c-1-1-2-2-3-3-14-14-22-33-24-53-1-13 1-26 6-39l-101-101-82 83 105 106c4 3 4 9 0 12-3 4-9 4-12 0l-50-50-108 108 0 1z m-115-268l0 83 54 54 41-41z m0 108l0 83 41-42z m0-133l52 53 17-17-69-69z m0-58l81 81 54-53-26-26-109-48z m361-51l-129 29 77 76 10-14c2-2 4-4 7-4 3 0 6 2 7 4l8 11 77-76z m75 33l-84 84 37 50 87-88 0-28z m-110 233c-23 0-41-18-41-41 0-23 18-42 41-42 23 0 42 19 42 42 0 23-19 41-42 41z m0-65c-13 0-24 11-24 24 0 13 11 23 24 23 13 0 24-10 24-23 0-13-11-24-24-24z m-151 101c2-5 9-7 14-4 4 4 5 10 1 14-3 3-8 4-12 1-3-2-4-7-3-11 1 0 0 1 0 0z"/>
<glyph glyph-name="support" unicode="&#122;" d="M128 175c-4 4-11 3-15-1-1-2-2-4-4-5-3-5-3-12 2-15 2-2 4-3 7-3 3 0 6 2 8 4 1 2 2 4 4 5 4 5 3 11-2 15z m197 209c2-2 5-2 7-2 3 0 6 1 8 3 2 2 3 4 4 5 4 5 3 12-2 15-5 4-12 2-15-2-1-1-2-3-3-4-4-4-3-11 1-15z m176-320l-16 0c-2 39-14 77-34 111-21 32-48 59-82 78 2 3 3 7 4 12l22 0c20 0 37 16 37 36l0 34c0 20-17 36-37 36l-3 0c1 14 0 28-3 40-10 31-27 56-51 74-23 18-52 27-82 27-30 0-59-9-82-27-24-18-41-43-51-74-3-12-4-26-3-40l-3 0c-20 0-37-16-37-36l0-34c0-20 17-36 37-36l22 0c1-5 2-9 4-12-34-19-61-46-82-78-20-34-32-72-34-111l-16 0c-6 0-11-5-11-11 0-6 5-10 11-10l96 0 11-35c1-5 5-8 10-8l210 0c0 0 0 0 0 0 0 0 0 0 0 0l46 0c5 0 9 3 10 8l11 35 96 0c6 0 11 4 11 10 0 6-5 11-11 11z m-120 237c0 3 1 7 2 13 2 10 5 23 6 36l6 0 0 0c9 0 15-7 15-15l0-34c0-8-6-15-15-15l-17 0c1 5 2 9 3 15z m-264-15l0 0c-9 0-15 7-15 15l0 34c0 8 6 15 15 15l6 0c1-13 4-26 6-36 1-6 2-10 2-13 1-6 2-10 3-15z m25 86c-1 12-1 24 2 32 16 54 59 87 112 87 53 0 96-33 112-87 3-10 3-26 1-41 0-1 0-2 0-3 0 0 0 0 0 0-2-15-5-31-7-42-1-6-2-10-2-14-2-9-3-17-5-23-15-14-42-24-69-26-1 5-5 9-11 9l-19 0c-6 0-11-5-11-11l0-9c0 0 0 0 0 0 0 0 0 0 0-1 0 0 0 0 0 0 0 0 0 0 1-1 0 0 0 0 0 0 0 0 0 0 0-1 0 0 0 0 0 0 0 0 0 0 0-1 0 0 0 0 0 0 0 0 0 0 1 0 0-1 0-1 0-1 0 0 0 0 0 0 0-1 0-1 0-1 0 0 1 0 1 0 0 0 0 0 0-1 0 0 0 0 0 0 0 0 1 0 1 0 0 0 0-1 0-1 0 0 0 0 0 0 1 0 1 0 1 0 0 0 0 0 0-1 0 0 1 0 1 0 0 0 0 0 0 0 0 0 1 0 1 0 0 0 0 0 0-1 0 0 1 0 1 0 0 0 0 0 0 0 0 0 1 0 1 0 0 0 0 0 0 0 0 0 1 0 1 0 0 0 0 0 0 0 0 0 0 0 0 0 6-1 12-1 18-1 25 0 49 5 70 15-6-7-12-11-22-17-4-3-8-5-13-9-17-10-35-15-52-15-17 0-35 5-52 15-5 4-9 6-13 9-19 12-27 17-33 46-1 0-1 1-1 2-2 7-3 15-5 25 0 4-1 8-2 14-2 9-4 21-6 33 20 3 62 10 90 23l7-16c1-2 1-4 2-5 2-6 4-12 11-14 2 0 3-1 5-1 3 0 7 2 13 4 1 0 3 1 5 1 7 3 22 10 36 19 5 4 6 10 3 15-3 5-10 6-15 3-13-9-26-15-31-16-2-1-4-2-5-2-1-1-2-1-2-1-1 1-2 3-2 5l-12 28c-1 3-4 5-7 6-3 1-6 0-9-2-23-15-70-23-91-26z m245-315c0 0 0-1 0-1l-11-35-24 0 4 17c2 6-2 11-7 13-6 2-12-2-13-8l-6-22-194 0-11 35c0 0 0 1 0 1l-15 50 24 0 6-22c1-5 5-8 10-8 1 0 2 0 3 0 6 2 9 7 7 13l-4 17 246 0z m24 7l15 50c1 4 1 7-1 10-2 2-6 4-9 4l-320 0c-3 0-7-2-9-4-2-3-2-6-1-10l15-50-53 0c4 71 43 135 105 170 5-6 10-10 17-15-10-5-20-12-29-19-5-4-6-10-2-15 2-3 5-4 8-4 2 0 5 1 7 2 8 7 17 13 27 18l10 5c0-1 1-1 1-2l1 0c21-12 42-18 63-18 0 0 0 0 0 0 21 0 42 6 63 18l1 0c4 4 9 7 13 9 11 7 20 13 26 21 62-35 101-99 105-170z m-255 1c-6-1-9-7-8-13l2-5c1-4 5-7 10-7 1 0 2 0 3 0 5 1 9 7 7 13l-1 5c-1 5-7 9-13 7z m196-2c1 0 2-1 3-1 4 0 9 4 10 8l1 5c2 6-2 12-7 13-6 2-12-2-13-7l-2-5c-1-6 2-12 8-13z"/>
<glyph glyph-name="telemarketer" unicode="&#65;" d="M386 373c-4 5-10 7-17 7l-12 0 2 22 1 27c2 21-5 41-20 56-14 16-33 24-54 24l-60 0c-21 0-40-8-54-24-15-15-22-35-21-56l3-40 1-9-13 0c-7 0-13-2-17-7-5-5-7-11-6-18l3-45c1-9 7-17 16-20l0-42c0-6 4-10 10-10 6 0 10 4 10 10l0 41 3 0c4-31 22-58 49-73 14-8 30-12 46-12 16 0 32 4 46 12 14 8 26 18 34 31 7 1 13 3 19 6 30 16 33 55 34 57 0 0 0 0 0 0l3 45c1 7-1 13-6 18z m-240-64c-2 0-3 1-3 3l-4 45c0 1 0 2 1 2 0 1 1 1 2 1l14 0 3-51z m26 122c-1 15 4 29 14 40 11 12 25 18 40 18l60 0c1 0 2 0 4-1l-16-42c-3-4-26-39-100-46z m159-136c0-10-3-19-7-28-9 1-19 5-30 10 1 2 1 4 1 6 0 14-12 25-26 25-14 0-25-11-25-25 0-15 11-26 25-26 5 0 9 1 13 3 11-5 20-9 30-11-6-6-12-11-20-15-22-12-50-12-72 0-23 13-38 35-39 61l-6 85c58 5 89 26 104 41 5-4 10-9 18-13 8-4 22-8 41-13z m-57-12c0-3-2-6-5-6-3 0-5 3-5 6 0 2 2 5 5 5 3 0 5-3 5-5z m66 148l-1-15c-19 4-28 8-33 10-11 6-13 11-13 12 0 0 0 0 0 0 0 0 0 0 0 0l17 45c5-3 11-7 16-12 10-11 15-25 14-40z m8-159c1 5 2 11 3 17l11 0c-3-7-8-13-14-17z m20 40c0-2-1-3-3-3l-12 0 3 51 13 0c1 0 2 0 2-1 1 0 1-1 1-2z m144-297l-10 54c-6 31-20 59-42 81-22 21-49 36-79 41-9 2-19 3-28 3l-30 0c-2 0-5-1-7-3l-60-60-60 60c-2 2-5 3-7 3l-30 0c-9 0-19-1-28-3-30-5-57-20-79-41-22-22-36-50-42-81l-10-54c0-3 0-6 2-8 2-3 5-4 8-4l492 0c3 0 6 1 8 4 2 2 2 5 2 8z m-249 94l65 64 25 0c1 0 3 0 4 0l-101-101-15 15z m-104 64l25 0 58-57-15-14-72 71c1 0 3 0 4 0z m-137-150l8 43c9 51 49 92 99 104l120-119c0-1 0-1 1-1 3-3 9-3 12 0 1 0 1 0 1 1l120 119c50-12 90-53 99-104l8-43z m126 204c-6 0-10-4-10-10l0-4c0-5 4-10 10-10 6 0 10 5 10 10l0 4c0 6-4 10-10 10z"/>
<glyph glyph-name="marker" unicode="&#66;" d="M256 410c-59 0-107-48-107-107 0-59 48-107 107-107 59 0 107 48 107 107 0 59-48 107-107 107z m0-189c-45 0-82 37-82 82 0 45 37 81 82 81 45 0 81-36 81-81 0-45-36-82-81-82z m0 291c-3 0-5 0-7 0-104-4-189-84-199-187-2-20-1-40 3-59 0 0 0-2 1-7 3-14 8-27 14-40 21-51 68-128 169-212 5-5 12-7 19-7 7 0 14 2 19 7 101 84 148 161 169 211 6 13 11 27 14 41 0 3 1 5 1 7 3 13 4 26 4 39 0 114-93 207-207 207z m178-242c0 0-1-2-1-5-3-12-7-24-13-36-20-48-64-122-161-202-1-1-2-1-3-1-1 0-2 0-3 1-97 80-141 154-162 202-5 12-9 24-12 36 0 3-1 5-1 5 0 0 0 1 0 1-3 17-4 34-2 52 8 90 83 160 173 163 103 4 188-79 188-181 0-11-1-23-3-35z"/>
</font>
</defs>
</svg>
